<?xml version="1.0" encoding="UTF-8"?>

<svg version="1.2" baseProfile="tiny" width="41.41mm" height="56.4mm" viewBox="1685 3590 4141 5640" preserveAspectRatio="xMidYMid" fill-rule="evenodd" stroke-width="28.222" stroke-linejoin="round" xmlns="http://www.w3.org/2000/svg" xmlns:xlink="http://www.w3.org/1999/xlink" xml:space="preserve">
 <defs>
  <font id="EmbeddedFont_1" horiz-adv-x="2048">
   <font-face font-family="Akhil HE embedded" units-per-em="2048" font-weight="normal" font-style="normal" ascent="1630" descent="635"/>
   <missing-glyph horiz-adv-x="2048" d="M 0,0 L 2047,0 2047,2047 0,2047 0,0 Z"/>
   <glyph unicode="हि" horiz-adv-x="1229" d="M 430,920 L 240,920 240,0 116,0 116,920 0,920 0,1030 129,1030 129,1145 C 129,1237 158,1311 217,1368 273,1422 343,1449 428,1449 499,1449 562,1433 616,1402 665,1373 715,1325 768,1258 L 972,999 843,999 C 798,1054 741,1125 672,1212 602,1299 522,1343 432,1343 378,1343 333,1326 298,1292 259,1255 240,1206 240,1144 L 240,1030 430,1030 430,920 Z M 1240,920 L 1004,920 1004,658 693,658 C 636,658 608,626 608,561 608,520 628,482 667,448 717,465 767,474 816,474 916,474 988,452 1033,407 1068,372 1086,318 1086,247 1086,216 1081,186 1070,155 L 962,185 C 967,203 970,224 970,248 970,288 960,316 939,332 916,349 873,358 810,358 740,358 685,342 644,310 603,277 582,234 582,181 582,88 660,23 816,-15 L 1012,-63 985,-169 790,-122 C 569,-69 458,36 458,191 458,229 467,267 486,304 506,344 532,374 564,393 511,444 484,509 484,588 484,631 501,672 535,713 569,754 607,774 649,774 L 880,774 880,920 360,920 360,1030 1240,1030 1240,920 Z"/>
   <glyph unicode="ष्" horiz-adv-x="996" d="M 598,317 C 541,276 477,256 406,256 325,256 258,284 206,340 154,396 128,463 128,542 L 128,920 -70,920 -70,1030 942,1030 942,920 722,920 722,0 598,0 598,317 Z M 598,463 L 598,920 252,920 252,850 532,616 468,539 252,720 252,530 C 252,482 270,443 307,412 338,385 371,372 406,372 474,372 538,402 598,463 Z M 856,-389 L 786,-459 488,-153 558,-83 856,-389 Z"/>
   <glyph unicode="श्" horiz-adv-x="1038" d="M 594,705 C 594,518 523,377 382,281 L 587,9 518,-63 288,232 C 264,226 245,223 230,223 214,223 188,231 153,248 127,273 114,302 114,335 114,364 123,391 142,415 163,437 187,448 212,448 251,448 280,432 299,401 L 326,370 C 381,417 419,466 440,517 460,564 470,626 470,703 470,846 423,918 329,918 299,918 275,908 257,888 239,868 230,844 230,816 230,787 244,762 273,743 301,723 340,713 389,714 L 384,604 C 313,601 251,618 198,656 142,697 114,750 114,817 114,880 136,934 181,978 220,1015 270,1034 329,1034 418,1034 486,1001 533,934 574,876 594,800 594,705 Z M 1162,920 L 942,920 942,0 818,0 818,920 658,920 658,1030 1162,1030 1162,920 Z M 1076,-389 L 1006,-459 708,-153 778,-83 1076,-389 Z"/>
   <glyph unicode="श" horiz-adv-x="1038" d="M 594,705 C 594,518 523,377 382,281 L 587,9 518,-63 288,232 C 264,226 245,223 230,223 214,223 188,231 153,248 127,273 114,302 114,335 114,364 123,391 142,415 163,437 187,448 212,448 251,448 280,432 299,401 L 326,370 C 381,417 419,466 440,517 460,564 470,626 470,703 470,846 423,918 329,918 299,918 275,908 257,888 239,868 230,844 230,816 230,787 244,762 273,743 301,723 340,713 389,714 L 384,604 C 313,601 251,618 198,656 142,697 114,750 114,817 114,880 136,934 181,978 220,1015 270,1034 329,1034 418,1034 486,1001 533,934 574,876 594,800 594,705 Z M 1162,920 L 942,920 942,0 818,0 818,920 658,920 658,1030 1162,1030 1162,920 Z"/>
   <glyph unicode="लि" horiz-adv-x="1525" d="M 430,920 L 240,920 240,0 116,0 116,920 0,920 0,1030 129,1030 129,1154 C 129,1229 153,1295 202,1352 257,1417 332,1449 425,1449 567,1449 741,1383 947,1252 1035,1200 1167,1116 1344,999 L 1162,999 C 1103,1042 1010,1101 881,1176 705,1287 553,1342 426,1342 373,1342 329,1324 294,1289 258,1253 240,1207 240,1151 L 240,1030 430,1030 430,920 Z M 1196,597 C 1121,599 1058,572 1008,517 1024,491 1032,467 1032,444 1032,417 1021,395 999,378 977,361 951,352 922,352 860,352 829,386 829,453 829,483 838,508 856,529 801,590 748,620 699,620 654,620 617,601 587,563 560,527 546,485 546,438 546,326 621,221 772,123 L 714,22 C 637,67 573,122 523,187 461,266 430,350 430,438 430,524 453,594 499,649 548,707 614,736 699,736 788,736 867,694 938,609 1003,677 1089,711 1196,711 L 1196,920 360,920 360,1030 1540,1030 1540,920 1320,920 1320,0 1196,0 1196,597 Z"/>
   <glyph unicode="रे" horiz-adv-x="742" d="M 332,372 L 551,24 458,-32 224,342 C 184,343 149,357 120,382 91,407 76,439 76,478 76,542 106,574 165,574 216,574 257,545 286,488 359,531 396,605 396,708 396,779 383,849 356,920 L 0,920 0,1030 746,1030 746,920 486,920 C 509,860 520,787 520,700 520,632 504,569 471,511 437,450 391,404 332,372 Z M 484,1009 L 393,969 4,1442 93,1511 484,1009 Z"/>
   <glyph unicode="म" horiz-adv-x="954" d="M 612,406 L 328,406 328,323 C 328,268 307,241 264,241 223,241 179,266 134,317 89,367 66,412 66,452 66,499 100,523 168,523 L 204,523 204,920 0,920 0,1030 956,1030 956,920 736,920 736,0 612,0 612,406 Z M 612,522 L 612,920 328,920 328,522 612,522 Z"/>
   <glyph unicode="फ़ॉ" horiz-adv-x="1653" d="M 242,920 L 242,558 C 242,465 284,418 368,418 410,418 465,445 534,498 L 534,920 242,920 Z M 534,372 C 467,325 412,302 369,302 289,302 226,328 181,381 139,430 118,495 118,575 L 118,920 -70,920 -70,1030 1240,1030 1240,920 658,920 658,589 C 709,632 766,654 829,654 902,654 960,630 1003,583 1046,535 1068,474 1068,400 1068,315 1026,205 941,70 L 851,148 C 913,241 944,325 944,402 944,441 932,474 909,500 885,525 854,538 815,538 766,538 713,511 658,456 L 658,0 534,0 534,372 Z M 100,91 C 100,111 107,128 122,142 136,156 153,163 173,163 193,163 210,156 224,142 238,128 245,111 245,91 245,71 238,54 224,40 210,25 193,18 173,18 153,18 136,25 122,40 107,54 100,71 100,91 Z M 1600,920 L 1370,920 1370,0 1246,0 1246,920 1090,920 1090,1030 1600,1030 1600,920 Z M 1066,1218 C 1104,1218 1137,1231 1166,1257 1194,1283 1210,1315 1214,1353 L 1301,1317 C 1290,1261 1263,1215 1219,1178 1175,1141 1124,1122 1066,1122 1008,1122 957,1141 914,1178 870,1215 843,1261 832,1317 L 918,1353 C 922,1315 938,1283 966,1257 994,1231 1027,1218 1066,1218 Z"/>
   <glyph unicode="पो" horiz-adv-x="1377" d="M 596,356 C 535,317 479,298 428,298 346,298 277,326 221,382 164,437 136,504 136,582 L 136,920 -70,920 -70,1030 944,1030 944,920 720,920 720,0 596,0 596,356 Z M 596,496 L 596,920 260,920 260,571 C 260,522 280,483 319,452 352,427 389,414 428,414 481,414 537,441 596,496 Z M 1304,920 L 1074,920 1074,0 950,0 950,920 794,920 794,1030 1304,1030 1304,920 Z M 1054,1009 L 963,969 574,1442 663,1511 1054,1009 Z"/>
   <glyph unicode="न्" horiz-adv-x="932" d="M 600,510 L 307,510 307,427 C 307,378 282,354 232,354 199,354 161,378 120,426 80,471 60,509 60,538 60,565 70,586 90,602 110,618 134,626 162,626 L 600,626 600,920 0,920 0,1030 944,1030 944,920 724,920 724,0 600,0 600,510 Z M 858,-389 L 788,-459 490,-153 560,-83 858,-389 Z"/>
   <glyph unicode="दी" horiz-adv-x="1229" d="M 537,157 C 518,155 493,154 461,154 344,154 252,183 183,242 114,300 80,379 80,479 80,557 104,621 153,670 202,719 266,744 347,744 L 515,744 515,920 0,920 0,1030 880,1030 880,920 639,920 639,628 368,628 C 319,628 280,613 250,584 219,554 204,517 204,473 204,413 228,364 275,327 322,289 381,270 454,270 475,269 493,270 507,271 504,293 503,309 504,319 507,388 544,422 617,422 684,422 718,387 718,316 718,269 696,229 651,194 L 700,0 580,-36 537,157 Z M 1240,920 L 1010,920 1010,0 886,0 886,920 810,920 810,1030 886,1030 C 867,1238 808,1342 709,1342 661,1342 623,1328 595,1301 567,1273 553,1236 553,1189 553,1141 563,1084 583,1018 L 478,999 C 457,1068 446,1132 446,1191 446,1266 469,1327 515,1374 562,1424 625,1449 704,1449 879,1449 976,1309 997,1030 L 1240,1030 1240,920 Z"/>
   <glyph unicode="त" horiz-adv-x="932" d="M 604,590 L 337,590 C 260,590 222,538 222,433 222,335 270,221 365,92 L 279,14 C 211,114 167,185 148,226 115,298 98,378 98,465 98,522 115,575 149,624 187,679 233,706 288,706 L 604,706 604,920 0,920 0,1030 948,1030 948,920 728,920 728,0 604,0 604,590 Z"/>
   <glyph unicode="ठ" horiz-adv-x="996" d="M 582,608 L 368,608 C 323,608 285,588 253,549 220,509 204,466 204,420 204,345 232,283 288,234 342,187 407,164 484,164 543,164 595,183 641,221 690,262 714,311 714,370 714,475 670,554 582,608 Z M 1010,920 L 674,920 674,690 C 783,614 838,507 838,369 838,279 801,202 728,139 658,78 578,48 487,48 376,48 281,82 202,151 121,222 80,313 80,423 80,504 104,573 153,631 204,693 269,724 347,724 L 550,724 550,920 0,920 0,1030 1010,1030 1010,920 Z"/>
   <glyph unicode="ट" horiz-adv-x="954" d="M 966,920 L 674,920 674,588 379,588 C 331,588 291,569 259,532 226,494 210,452 210,407 210,338 234,284 283,244 332,204 397,184 479,184 584,184 668,233 731,330 L 839,269 C 801,206 747,156 678,119 614,85 550,68 486,68 367,68 271,98 199,158 124,220 86,305 86,413 86,492 110,560 158,616 209,675 274,704 353,704 L 550,704 550,920 0,920 0,1030 966,1030 966,920 Z"/>
   <glyph unicode="जिं" horiz-adv-x="1610" d="M 430,920 L 240,920 240,0 116,0 116,920 0,920 0,1030 129,1030 129,1154 C 129,1229 153,1295 202,1352 257,1417 332,1449 425,1449 567,1449 741,1383 947,1252 1035,1200 1167,1116 1344,999 L 1162,999 C 1103,1042 1010,1101 881,1176 705,1287 553,1342 426,1342 373,1342 329,1324 294,1289 258,1253 240,1207 240,1151 L 240,1030 430,1030 430,920 Z M 1266,580 L 1016,580 C 1049,531 1066,473 1066,406 1066,321 1045,253 1002,202 955,147 890,119 807,119 716,119 635,158 566,235 541,262 512,310 478,379 447,440 425,493 410,538 L 500,585 C 512,550 535,501 568,437 602,371 627,328 644,309 687,259 741,234 806,234 853,234 889,251 915,284 938,315 950,354 950,402 950,473 927,532 880,580 L 759,580 759,696 1266,696 1266,920 360,920 360,1030 1610,1030 1610,920 1390,920 1390,0 1266,0 1266,580 Z M 1422,1280 C 1422,1257 1414,1238 1399,1222 1384,1206 1365,1198 1342,1198 1319,1198 1300,1206 1284,1222 1268,1238 1260,1257 1260,1280 1260,1303 1268,1322 1284,1338 1300,1354 1319,1362 1342,1362 1365,1362 1384,1354 1399,1338 1414,1322 1422,1303 1422,1280 Z"/>
   <glyph unicode="ग्" horiz-adv-x="954" d="M 358,920 L 358,347 C 358,332 352,318 340,304 326,288 308,280 286,280 245,280 202,307 157,361 113,413 91,459 91,500 91,548 129,572 205,572 L 234,572 234,920 0,920 0,1030 962,1030 962,920 742,920 742,0 618,0 618,920 358,920 Z M 876,-389 L 806,-459 508,-153 578,-83 876,-389 Z"/>
   <glyph unicode="ग" horiz-adv-x="954" d="M 358,920 L 358,347 C 358,332 352,318 340,304 326,288 308,280 286,280 245,280 202,307 157,361 113,413 91,459 91,500 91,548 129,572 205,572 L 234,572 234,920 0,920 0,1030 962,1030 962,920 742,920 742,0 618,0 618,920 358,920 Z"/>
   <glyph unicode="के" horiz-adv-x="1229" d="M 208,473 C 208,368 259,316 362,316 408,316 466,356 536,435 L 536,920 0,920 0,1030 1240,1030 1240,920 660,920 660,611 C 706,660 764,684 834,684 906,684 963,661 1006,614 1049,567 1070,508 1070,437 1070,327 1024,221 932,119 L 846,206 C 913,286 946,364 946,439 946,525 908,568 831,568 777,568 720,530 660,454 L 660,0 536,0 536,287 C 475,229 412,200 347,200 267,200 203,225 156,276 108,326 84,391 84,471 84,551 109,618 159,672 209,725 274,752 354,752 387,752 421,747 457,736 L 429,626 C 401,633 376,636 354,636 309,636 273,621 247,590 221,559 208,520 208,473 Z M 660,1009 L 569,969 180,1442 269,1511 660,1009 Z"/>
   <glyph unicode="कं" horiz-adv-x="1229" d="M 208,473 C 208,368 259,316 362,316 408,316 466,356 536,435 L 536,920 0,920 0,1030 1240,1030 1240,920 660,920 660,611 C 706,660 764,684 834,684 906,684 963,661 1006,614 1049,567 1070,508 1070,437 1070,327 1024,221 932,119 L 846,206 C 913,286 946,364 946,439 946,525 908,568 831,568 777,568 720,530 660,454 L 660,0 536,0 536,287 C 475,229 412,200 347,200 267,200 203,225 156,276 108,326 84,391 84,471 84,551 109,618 159,672 209,725 274,752 354,752 387,752 421,747 457,736 L 429,626 C 401,633 376,636 354,636 309,636 273,621 247,590 221,559 208,520 208,473 Z M 812,1280 C 812,1257 804,1238 789,1222 774,1206 755,1198 732,1198 709,1198 690,1206 674,1222 658,1238 650,1257 650,1280 650,1303 658,1322 674,1338 690,1354 709,1362 732,1362 755,1362 774,1354 789,1338 804,1322 812,1303 812,1280 Z"/>
   <glyph unicode="ए" horiz-adv-x="933" d="M 876,920 L 706,920 706,659 C 706,594 686,536 645,484 600,427 543,400 476,401 L 449,509 C 492,511 527,527 552,556 572,580 582,606 582,634 L 582,920 246,920 246,409 560,144 C 591,118 638,93 702,68 L 666,-30 C 644,-24 623,-17 603,-9 554,10 514,33 483,60 L 122,366 122,920 -70,920 -70,1030 876,1030 876,920 Z"/>
   <glyph unicode="इं" horiz-adv-x="848" d="M 850,920 L 572,920 572,656 344,656 C 316,656 293,648 274,631 255,614 246,592 246,567 246,501 277,468 339,468 L 518,468 C 575,468 619,446 649,403 675,366 688,320 688,264 688,168 646,95 563,45 507,12 436,0 349,10 L 404,-94 326,-156 214,18 C 135,39 96,76 96,131 96,197 125,230 182,230 217,230 245,216 265,189 278,166 290,144 303,121 388,106 451,112 491,141 540,175 564,216 564,263 564,284 559,303 550,322 537,346 520,358 497,358 L 332,358 C 268,358 217,378 178,418 141,455 122,507 122,575 122,624 138,668 169,705 204,746 249,766 304,766 L 448,766 448,920 0,920 0,1030 850,1030 850,920 Z M 662,1280 C 662,1257 654,1238 639,1222 624,1206 605,1198 582,1198 559,1198 540,1206 524,1222 508,1238 500,1257 500,1280 500,1303 508,1322 524,1338 540,1354 559,1362 582,1362 605,1362 624,1354 639,1338 654,1322 662,1303 662,1280 Z"/>
   <glyph unicode="l" horiz-adv-x="213" d="M 110,1126 L 244,1126 244,160 C 244,121 261,100 296,98 L 338,98 338,-24 280,-24 C 167,-24 110,36 110,155 L 110,1126 Z"/>
   <glyph unicode="k" horiz-adv-x="615" d="M 720,0 L 579,0 343,410 240,307 240,0 110,0 110,1128 240,1128 240,480 568,808 741,808 432,499 720,0 Z"/>
   <glyph unicode="i" horiz-adv-x="107" d="M 244,967 L 110,967 110,1128 244,1128 244,967 Z M 244,0 L 110,0 110,808 244,808 244,0 Z"/>
   <glyph unicode="h" horiz-adv-x="594" d="M 718,0 L 588,0 588,530 C 588,577 578,617 557,650 533,687 499,706 456,706 376,706 304,662 240,574 L 240,0 110,0 110,1128 240,1128 240,734 C 305,799 384,831 475,831 549,831 609,803 654,747 697,695 718,630 718,552 L 718,0 Z"/>
   <glyph unicode="H" horiz-adv-x="721" d="M 254,534 L 254,0 120,0 120,1104 254,1104 254,660 746,660 746,1104 880,1104 880,0 746,0 746,534 254,534 Z"/>
   <glyph unicode="E" horiz-adv-x="700" d="M 836,0 L 120,0 120,1104 836,1104 836,978 254,978 254,660 726,660 726,534 254,534 254,126 836,126 836,0 Z"/>
   <glyph unicode="A" horiz-adv-x="996" d="M 697,456 L 508,977 318,456 697,456 Z M 998,0 L 864,0 743,330 272,330 152,0 20,0 420,1104 598,1104 998,0 Z"/>
   <glyph unicode="-" horiz-adv-x="551" d="M 632,408 L 68,408 68,530 632,530 632,408 Z"/>
   <glyph unicode=" " horiz-adv-x="635"/>
  </font>
</defs>
</svg>
